Dark.Chocolate.2016.720p.WEB-HD.x264.AC3

Format : Matroska
Format version : Version 2
File size : 1.50 GiB
Duration : 1h 31mn
Overall bit rate : 2 350 Kbps

Video
ID : 1
Format : AVC
Format/Info : Advanced Video Codec
Format profile : High@L3.1
Format settings, CABAC : Yes
Format settings, ReFrames : 4 frames
Codec ID : V_MPEG4/ISO/AVC
Duration : 1h 31mn
Bit rate : 2 189 Kbps
Width : 1 280 pixels
Height : 544 pixels
Display aspect ratio : 2.35:1
Frame rate mode : Constant
Frame rate : 24.000 fps
Color space : YUV
Chroma subsampling : 4:2:0
Bit depth : 8 bits
Scan type : Progressive
Bits/(Pixel*Frame) : 0.131
Stream size : 1.39 GiB (93%)
Writing library : x264 core 148 r2638 7599210

Audio
ID : 2
Format : AC-3
Format/Info : Audio Coding 3
Mode extension : CM (complete main)
Format settings, Endianness : Big
Codec ID : A_AC3
Duration : 1h 31mn
Bit rate mode : Constant
Bit rate : 160 Kbps
Channel(s) : 2 channels
Channel positions : Front: L R
Sampling rate : 44.1 KHz
Frame rate : 28.711 fps (1536 spf)
Compression mode : Lossy
Stream size : 104 MiB (7%)
Default : Yes
Forced : No
Source:WeTv

 

 

 

 

 

Watch Online

 

 

 

 

 

 

Single link

 

 

 

 

 

ng36ysv
HD Movies 300MB Movies Hd Movies bollywood Movies Hollywood Dual Audio Movies Bollywood best drama tv series popular tv shows movies extratorrents cc movies Movies Hd Movies 300MB Movies 720p movies 1080p movies 480p movies HD Movies 300MB Movies best tv shows top tv shows good tv shows to watchgood tv series good tv series to watch Hd extratorrents cc Movies bollywood Movies Hollywood Dual Audio Movies Bollywood Movies Hd Movies 300MB Movies best action tv shows good tv series to watch extratorrent proxy extratorrents unblock 720p movies 1080p movies 480p movies pc movies hd mkv hd movies MoviezAddiction FREE DOWNLOAD HD PC MOVIES MKV 720P 480P 300MB MOVIES   music 1080P HD MOVIES Download Bollywood Movieskat 720p HD hindi Movies 300MB Movies Bollywood 300mb Hollywood Hindi Dubbed Movies Hd 1080p movies 60fps HD Movies Download 720p Dts Movies 3d Hd Hollywood Bollywood Movies Free Direct Download

Leave a Reply

Your email address will not be published. Required fields are marked *

*