Ishq.Click.2016.Hindi.720p.WEB-HD.x264.AC3

Format                                   : Matroska
Format version                           : Version 4 / Version 2
File size                                : 1.50 GiB
Duration                                 : 2h 15mn
Overall bit rate                         : 1 584 Kbps

Video
ID                                       : 1
Format                                   : AVC
Format/Info                              : Advanced Video Codec
Format profile                           : High@L4
Format settings, CABAC                   : Yes
Format settings, ReFrames                : 4 frames
Codec ID                                 : V_MPEG4/ISO/AVC
Duration                                 : 2h 15mn
Bit rate                                 : 1 457 Kbps
Width                                    : 1 280 pixels
Height                                   : 550 pixels
Display aspect ratio                     : 2.35:1
Original display aspect ratio            : 2.35:1
Frame rate mode                          : Constant
Frame rate                               : 24.000 fps
Color space                              : YUV
Chroma subsampling                       : 4:2:0
Bit depth                                : 8 bits
Scan type                                : Progressive
Bits/(Pixel*Frame)                       : 0.086
Stream size                              : 1.35 GiB (90%)
Writing library                          : x264 core 142 r2479 dd79a61

Audio
ID                                       : 2
Format                                   : AC-3
Format/Info                              : Audio Coding 3
Mode extension                           : CM (complete main)
Format settings, Endianness              : Big
Codec ID                                 : A_AC3
Duration                                 : 2h 15mn
Bit rate mode                            : Constant
Bit rate                                 : 128 Kbps
Channel(s)                               : 2 channels
Channel positions                        : Front: L R
Sampling rate                            : 44.1 KHz
Frame rate                               : 28.711 fps (1536 spf)
Bit depth                                : 32 bits
Compression mode                         : Lossy
Delay relative to video                  : 30ms
Stream size                              : 124 MiB (8%)
Title                                    : Stereo
Writing library                          : Lavc56.41.100 ac3
Default                                  : Yes
Forced                                   : No
Source:DDR

 

 

 

 

 

Watch Online

 

 

 

 

 

 

Single link

 

 

 

 

 

Leave a Reply

Your email address will not be published. Required fields are marked *

*