Motu Patlu-King Of Kings (2016) DVDRip 720p x264 Dual Audio [Hindi-Tamil] AAC 5.1

Source Thanks To TamilRockers

General
Format                      : Matroska
Format version              : Version 4 / Version 2
File size                   : 1.44 GiB
Duration                    : 1 h 49 min
Overall bit rate            : 1 885 kb/s
Movie name                  : Pasha@Hon3yHD

Video
Format                      : AVC
Format/Info                 : Advanced Video Codec
Format profile              : High@L4.1
Format settings, CABAC      : Yes
Format settings, ReFrames   : 9 frames
Codec ID                    : V_MPEG4/ISO/AVC
Duration                    : 1 h 49 min
Bit rate                    : 1 502 kb/s
Width                       : 1 280 pixels
Height                      : 668 pixels
Display aspect ratio        : 1.916
Frame rate mode             : Constant
Frame rate                  : 23.976 (24000/1001) FPS
Color space                 : YUV
Chroma subsampling          : 4:2:0
Bit depth                   : 8 bits
Scan type                   : Progressive
Bits/(Pixel*Frame)          : 0.073
Stream size                 : 1.15 GiB (80%)
Title                       : Pasha@Hon3yHD

Audio 1
Format                      : AAC
Format/Info                 : Advanced Audio Codec
Format profile              : HE-AAC / LC
Codec ID                    : A_AAC
Duration                    : 1 h 49 min
Bit rate                    : 192 kb/s
Channel(s)                  : 6 channels
Channel positions           : Front: L C R, Side: L R, LFE
Sampling rate               : 48.0 kHz / 24.0 kHz
Frame rate                  : 23.438 FPS (1024 spf)
Compression mode            : Lossy
Delay relative to video     : 31 ms
Stream size                 : 149 MiB (10%)
Title                       : Hindi—Pasha@Hon3yHD
Language                    : Hindi
Default                     : Yes
Forced                      : Yes

Audio 2
Format                      : AAC
Format/Info                 : Advanced Audio Codec
Format profile              : HE-AAC / LC
Codec ID                    : A_AAC
Duration                    : 1 h 49 min
Bit rate                    : 192 kb/s
Channel(s)                  : 6 channels
Channel positions           : Front: L C R, Side: L R, LFE
Sampling rate               : 48.0 kHz / 24.0 kHz
Frame rate                  : 23.438 FPS (1024 spf)
Compression mode            : Lossy
Delay relative to video     : 31 ms
Stream size                 : 149 MiB (10%)
Title                       : Tamil—Pasha@Hon3yHD
Language                    : Tamil
Default                     : No

Watch Online

 

 

 

 

Single link

 

 

 

 

Plz Share With Others

keep Sharing With your friends By Using Above Buttons

Leave a Reply

Your email address will not be published. Required fields are marked *

*