Ranbanka.2015.Hindi.720p.WEBHD.x264.AC3

To join our whatsapp group

To Join Our Whatsapp Group Pin Us At +91 9555895592

Format                                   : Matroska
Format version                           : Version 4 / Version 2
File size                                : 1.50 GiB
Duration                                 : 1h 33mn
Overall bit rate                         : 2 299 Kbps

Video
ID                                       : 1
Format                                   : AVC
Format/Info                              : Advanced Video Codec
Format profile                           : High@L4
Format settings, CABAC                   : Yes
Format settings, ReFrames                : 4 frames
Codec ID                                 : V_MPEG4/ISO/AVC
Duration                                 : 1h 33mn
Bit rate                                 : 2 106 Kbps
Width                                    : 1 280 pixels
Height                                   : 540 pixels
Display aspect ratio                     : 2.40:1
Original display aspect ratio            : 2.40:1
Frame rate mode                          : Constant
Frame rate                               : 21.818 fps
Color space                              : YUV
Chroma subsampling                       : 4:2:0
Bit depth                                : 8 bits
Scan type                                : Progressive
Bits/(Pixel*Frame)                       : 0.140
Stream size                              : 1.34 GiB (90%)
Writing library                          : x264 core 142 r2479 dd79a61

Audio
ID                                       : 2
Format                                   : AC-3
Format/Info                              : Audio Coding 3
Mode extension                           : CM (complete main)
Format settings, Endianness              : Big
Codec ID                                 : A_AC3
Duration                                 : 1h 33mn
Bit rate mode                            : Constant
Bit rate                                 : 192 Kbps
Channel(s)                               : 2 channels
Channel positions                        : Front: L R
Sampling rate                            : 48.0 KHz
Compression mode                         : Lossy
Delay relative to video                  : 27ms
Stream size                              : 128 MiB (8%)
Title                                    : Stereo
Default                                  : Yes
Forced                                   : No

Watch Online

 

 

 

 

Single link

 

 

 

 

Share This:

Plz Share With Others

keep Sharing With your friends By Using Above Buttons

Leave a Reply

Your email address will not be published. Required fields are marked *

*