Batman V Superman – Dawn Of Justice (2016) Extended Hindi Audio

Report Dead Link

If You Found A Dead Link Please Tell Us On Below Comment Box We Will Reupload This Movie As Soon As Possible

Batman V Superman – Dawn Of Justice (2016) Extended Hindi Audio

Batman v Superman Dawn of Justice - 2016 - tt2975590 -3 copy

Audio Info : 448 Kbps
Format : AC-3
Duration : 3h 2mn 33sec
Bit rate mode : Constant
Bit rate : 448 Kbps
Channel(s) : 6 channels
Channel positions : Front: L C R, Side: L R, LFE
Sampling rate : 48.0 KHz
Compression mode : Lossy
Stream size : 585 MiB (100%)
Language : Hindi
Default : Yes
Forced : No
Audio Info : 192 Kbps
Format : AC-3
Duration : 3h 2mn 33sec
Bit rate mode : Constant
Bit rate : 192 Kbps
Channel(s) : 2 channels
Channel positions : Front: L R
Sampling rate : 48.0 KHz
Compression mode : Lossy
Stream size : 251 MiB (100%)
Language : Hindi
Default : Yes
Forced : No
Perfect Sync with ETRG 720p & 1080p

DOWNLOAD LINK:

About Crazzy boy 2340 Articles
I Am Crazzy About Movies Thats Why I Named Myself Crazzy Boy And I Love To Watch Movies And Share My Experience To Others......

Be the first to comment

Leave a Reply

Your email address will not be published.


*